<?xml version="1.0" standalone="no"?>
<!DOCTYPE svg PUBLIC "-//W3C//DTD SVG 1.1//EN" "http://www.w3.org/Graphics/SVG/1.1/DTD/svg11.dtd">
<svg xmlns="http://www.w3.org/2000/svg">
<metadata>Copyright (C) 2025 by original authors @ fontello.com</metadata>
<defs>
<font id="wilma" horiz-adv-x="1000" >
<font-face font-family="wilma" font-weight="400" font-stretch="normal" units-per-em="1000" ascent="850" descent="-150" />
<missing-glyph horiz-adv-x="1000" />
<glyph glyph-name="send" unicode="&#xe800;" d="M763 693c-24-8-604-218-612-222a59 59 0 0 1-34-38 65 65 0 0 1 10-58c6-8 19-16 134-82l115-67 67-115c36-63 69-118 72-123a62 62 0 0 1 67-22 67 67 0 0 1 32 22c5 7 28 69 119 320 100 277 113 313 113 323a56 56 0 0 1-10 39c-16 23-45 32-73 23m-15-98c-2-7-187-516-188-517 0-1-23 38-51 85l-50 86 80 81c76 76 81 81 84 90a41 41 0 0 1-44 55c-5-1-11-3-14-4-3-2-42-39-86-83l-80-79-86 50c-47 27-85 50-85 51 0 1 514 188 519 188 1 0 1-1 1-3" horiz-adv-x="1000" />

<glyph glyph-name="portfolio" unicode="&#xe801;" d="M407 801a259 259 0 0 1-10-17c-19-35-47-67-78-88-9-5-16-11-16-13 0-1 7-7 17-13 9-7 24-20 34-30 19-19 30-34 44-59 5-9 9-16 10-17 3-1 8 5 16 20 15 32 44 63 76 86 9 6 17 12 17 13 0 2-8 8-17 14-32 22-57 50-77 86-6 11-11 19-13 20-1 0-2-1-3-2m262-84a224 224 0 0 0-21-31 167 167 0 0 0-42-35c-6-4-11-8-11-9s5-6 11-9a170 170 0 0 0 59-59c3-6 7-11 8-12 1 0 7 7 12 15a179 179 0 0 0 52 52c9 6 17 12 17 13 1 0-5 5-12 9-20 11-42 33-56 54-6 9-11 17-12 17-1 0-3-3-5-5m-213-160c-148-12-255-64-278-137a105 105 0 0 1 0-57c13-39 50-74 105-97l16-7v-7c0-39-11-109-26-171-4-18-7-36-7-40 0-31 17-60 43-73 22-10 80-25 126-31 32-4 112-4 144 0 49 7 103 20 127 32 19 9 33 26 40 49 4 16 3 30-5 62a862 862 0 0 0-24 150 2413 2413 0 0 0-2 27c0 1 5 4 10 6 57 23 97 58 110 97 4 10 4 15 4 32 0 17 0 21-4 32-25 68-121 116-258 131-24 2-96 3-121 2m123-86c76-9 140-32 167-60 14-16 15-23 0-38-26-28-87-50-165-61-28-3-114-4-140 0-82 10-139 30-169 57-17 16-18 25-6 39 28 32 105 58 193 65 27 2 93 1 120-2m-101-39c-31-2-59-9-75-18-28-15-27-33 3-46 60-28 185-22 218 10 10 9 11 16 3 24-12 15-42 25-87 30a428 428 0 0 1-62 0m-70-200c33-5 65-7 99-7 34 0 66 2 99 7 13 2 24 3 26 3 1 0 2-3 2-9 0-36 17-136 30-182 2-5-53-18-98-24-27-4-100-3-126 1-32 5-81 16-88 20-2 1-1 6 4 28 11 46 21 101 23 138 2 20 3 28 4 28 1 0 12-1 25-3" horiz-adv-x="1042" />

<glyph glyph-name="contact" unicode="&#xe802;" d="M771 806a54 54 0 0 1-14-10c-8-7-10-10-16-27-9-25-15-35-32-52-15-16-28-24-52-32a114 114 0 0 1-22-10c-22-16-22-49-1-66 3-2 13-7 23-11 25-9 36-15 52-32 17-16 23-27 32-52 6-15 9-20 14-26a40 40 0 0 1 56-3c8 7 12 14 16 28 14 42 42 70 86 86 16 6 21 8 27 14 8 9 10 17 10 29 0 18-10 32-27 39-34 12-48 20-63 36-16 15-24 29-36 62a44 44 0 0 1-21 24c-8 5-24 6-32 3m-427-42c-27-5-45-15-64-35a115 115 0 0 1-32-53l-4-13v-626l4-13c7-22 15-36 32-53 16-16 30-25 51-32l14-5h380l15 6c45 16 75 50 84 96 2 11 2 35 2 169 0 149-1 157-4 162-8 16-20 24-37 24-13 0-22-4-30-12-12-12-11 1-12-174l-1-158-4-7c-4-9-15-19-24-21-5-2-54-2-180-2-191 0-182-1-194 11a61 61 0 0 0-10 12c-3 5-3 23-3 310 0 285 1 305 3 310a49 49 0 0 0 20 19c6 3 13 4 101 4 68 1 96 2 100 3a54 54 0 0 1 21 21c5 9 5 27 0 35a47 47 0 0 1-19 20c-7 4-8 4-102 4-75 0-98 0-107-2m457-106l16-16-16-16-16-17-17 17-16 16 16 16c9 9 16 16 16 16 0 1 8-7 17-16m-281-476c-35-9-56-47-44-81a62 62 0 0 1 115-6c5 10 5 13 5 26s0 16-5 26a62 62 0 0 1-52 36 77 77 0 0 1-19-1" horiz-adv-x="1042" />

<glyph glyph-name="service" unicode="&#xe803;" d="M212 723c-21-4-45-22-55-41-12-21-11 0-11-332 0-328-1-310 10-330 6-12 21-28 33-34 21-12 0-11 332-11 261 0 303 0 311 3a85 85 0 0 1 61 61c4 15 4 232 0 248-8 31-34 55-65 61a176 176 0 0 1-26 2h-16l39 40c41 41 46 47 51 67 5 19 3 38-7 58-4 10-13 19-88 94-78 78-83 83-95 89-25 12-50 12-74 1-11-5-17-10-52-45l-39-39v18c0 11-1 23-3 29-8 31-34 55-65 61-11 2-230 2-241 0m226-373v-292h-209v584h209v-292m220-9l-136-137-1 146 0 147 64 64 63 63 74-73 73-73-137-137m155-178v-105h-292v27l91 91 90 91h111v-104m-494 60a67 67 0 0 1-30-17c-9-10-12-15-16-27-8-29 7-60 35-73 9-4 13-5 25-5s17 1 26 5c13 6 25 18 31 31 4 9 5 13 5 26s-1 16-5 25a62 62 0 0 1-53 36 77 77 0 0 1-18-1" horiz-adv-x="1042" />

<glyph glyph-name="arrow-top" unicode="&#xe804;" d="M413 627c-25-5-39-34-28-57 5-9 16-17 25-20 4-1 46-2 119-2h114l-201-201c-217-216-205-204-205-221 0-22 17-39 39-39 17 0 5-12 221 205l201 201v-114c0-73 1-115 2-119 1-4 4-10 7-14 19-25 60-17 69 14 4 11 3 327 0 339a40 40 0 0 1-21 25l-7 4-165 0c-90 0-167-1-170-1" horiz-adv-x="1000" />

<glyph glyph-name="home" unicode="&#xe805;" d="M483 752c-5-1-12-5-18-8-14-9-354-273-363-283-17-17-15-43 4-59 10-9 17-10 44-10h24v-171c0-185 0-182 9-201 6-12 24-29 35-35 21-11 6-10 289-10 280 0 267 0 288 9 10 5 31 26 37 37 9 18 8 14 8 198l0 172 28 1c30 1 33 2 43 12 8 8 11 15 12 26a37 37 0 0 1-12 33c-4 3-85 67-181 142-130 101-177 137-187 142-14 6-15 7-33 7-13 0-22 0-27-2m159-184l131-102-4-5c-3-2-6-7-8-10-3-6-3-15-4-199l0-194h-208l-1 132c0 145 1 136-11 147-9 9-17 12-30 12-17 0-29-8-38-23-3-6-3-13-3-137l-1-131h-208l0 191c0 128-1 193-2 197a37 37 0 0 1-7 12c-3 4-5 7-5 8 0 2 263 205 265 204 1 0 61-46 134-102" horiz-adv-x="1042" />

<glyph glyph-name="menu" unicode="&#xe806;" d="M311 682a44 44 0 0 1-27-23c-5-9-5-26 0-36 5-9 16-18 25-21 5-1 63-2 221-2 233 0 222 0 235 10 19 14 19 49 0 64-13 10-2 9-235 9-118 0-217 0-219-1m-125-292a44 44 0 0 1-27-23c-5-8-5-26 0-35 5-9 16-19 25-22 5-1 93-2 346-2 370 0 346 0 360 10 19 15 19 49 0 64-14 10 10 10-360 10-187-1-342-1-344-2m125-292a44 44 0 0 1-27-22c-5-9-5-27 0-36 5-9 16-19 25-21 5-2 63-2 221-2 238 0 224-1 237 11a41 41 0 0 1-15 70c-7 2-38 2-222 2-118 0-217-1-219-2" horiz-adv-x="1042" />

<glyph glyph-name="hand-heart" unicode="&#xe807;" d="M581 724c-47-8-90-43-109-90-13-31-17-66-11-96 13-60 58-114 140-165 59-37 72-37 132 0 31 20 57 40 79 62 46 46 65 90 63 142-3 42-19 79-47 107-43 42-104 53-152 26l-9-4-13 6a154 154 0 0 1-23 9c-12 3-39 4-50 3m37-87c4-2 10-7 15-10 13-12 19-14 34-14 14 0 21 2 34 14 12 10 20 14 32 14 41 0 71-55 53-99-2-6-6-15-10-20-7-13-36-42-57-57-17-13-49-33-52-33-3 0-38 22-56 36-32 24-55 51-64 75a79 79 0 0 0 18 82c16 16 36 21 53 12m-204-277a193 193 0 0 1-43-12c-6-3-31-18-57-34l-47-29-9 7c-18 14-34 17-77 16-27-1-33-1-41-4-20-8-39-24-47-41-9-19-10-21-10-121 0-60 1-95 2-101 3-15 11-29 23-41 12-12 23-18 39-23 12-3 65-3 78 0 20 4 43 19 52 34l4 6 22-1 23 0 57-29c80-41 100-47 147-45 22 1 31 2 99 16 79 16 86 18 102 26 13 6 154 112 161 121 15 19 23 38 24 61 3 46-24 86-67 101-13 4-17 5-31 5-30 0-48-8-99-44-14-11-27-19-27-19a21 21 0 0 0 1 7c3 9 2 32 0 43a84 84 0 0 1-43 52c-12 6-167 46-190 49a166 166 0 0 1-46 0m119-103a3991 3991 0 0 0 79-20c0 0-2-7-4-15-6-18-13-29-24-34-8-4-10-4-46-4l-38-1v-83l82 0 82 1 17 6c15 5 22 9 74 44 64 42 65 43 74 33 5-6 6-13 2-20-2-4-127-100-139-106-3-2-39-10-80-18-61-12-77-15-90-15-25 0-34 3-104 37-34 17-67 32-72 34a206 206 0 0 1-32 4l-22 1 0 50 1 51 50 32c52 33 65 40 78 43 17 3 30 1 112-20m-325-115v-84h-41v167h41v-83" horiz-adv-x="1000" />

<glyph glyph-name="all" unicode="&#xe808;" d="M195 724c-33-6-61-33-68-65-3-12-3-189 0-201 6-31 33-58 64-64 6-2 41-2 101-2 78 0 94 0 102 2 32 8 56 33 63 64 2 12 2 189 0 201-6 27-26 50-54 61l-10 4-97 0c-53 1-99 0-101 0m417 0c-34-6-62-33-68-65-2-6-2-40-2-101 0-60 0-94 2-100 6-31 33-58 64-64 6-2 40-2 101-2 77 0 94 0 102 2 31 8 56 33 62 64 3 12 3 189 0 201-6 27-25 50-54 61l-10 4-96 0c-54 1-99 0-101 0m-237-166v-83h-167v167h167v-84m417 0v-83h-167v167h167v-84m-597-251c-33-6-61-32-68-65-3-12-3-188 0-201 6-31 33-58 64-64 6-1 41-2 101-2 78 0 94 0 102 2 32 9 56 34 63 64 2 13 2 189 0 201-6 28-26 50-54 62l-10 4-97 0c-53 0-99 0-101-1m499-1a44 44 0 0 1-25-25c-2-7-2-16-2-53v-45h-45c-51 0-56 0-68-12a41 41 0 0 1 0-58c12-12 17-13 68-13h45v-45c0-51 1-56 12-68a41 41 0 0 1 59 0c11 12 12 17 12 68v45h45c51 0 56 1 68 13a41 41 0 0 1 0 58c-12 12-17 12-68 12h-45v45c0 52-1 56-12 68a42 42 0 0 1-44 10m-319-164v-84h-167v167h167v-83" horiz-adv-x="1000" />

<glyph glyph-name="wilma" unicode="&#xe809;" d="M204 761a168 168 0 0 1-129-114c-4-11-4-14-4-146 0-80 1-141 2-150a197 197 0 0 1 42-103c15-19 268-254 300-278 13-10 37-22 55-28l15-4h330l15 4c58 15 103 60 120 119 4 14 4 14 5 148 0 116 0 137-3 150-7 40-27 81-53 109-4 4-49 45-100 90a12109 12109 0 0 0-127 114c-53 49-60 56-71 63a221 221 0 0 1-52 24c-13 3-14 3-173 4-126 0-162 0-172-2m313-88c25-3 29-6 94-66 43-40 78-71 162-144 37-32 70-62 74-67 10-11 16-24 18-39 2-16 2-247 0-263-4-28-24-53-52-64-10-4-11-4-154-4-155-1-160-1-177 8-12 5-14 7-63 51a31467 31467 0 0 1-192 172c-24 21-47 42-51 47a74 74 0 0 0-18 36c-1 5-2 58-2 137 0 139 0 138 10 157 11 20 34 36 57 39 15 2 279 2 294 0" horiz-adv-x="1042" />

<glyph glyph-name="blog" unicode="&#xe80a;" d="M474 848a499 499 0 0 1-358-198c-52-70-84-149-96-240-3-21-3-42-3-249v-225l4-14a101 101 0 0 1 66-67l12-3h229c245 0 240-1 286 8a498 498 0 0 1 285 169c62 74 98 155 113 252 5 37 5 102 0 138-10 65-27 117-57 171-57 105-153 187-266 229-65 24-145 35-215 29m97-102a402 402 0 0 0 262-152 411 411 0 0 0 74-160c6-30 8-50 8-84 0-65-12-117-40-175a391 391 0 0 0-141-159c-51-34-119-58-182-64-11-1-101-2-227-2h-208v215c0 206 1 225 6 255 16 96 73 189 151 248 62 47 132 73 214 81 15 2 66 0 83-3m-225-301a52 52 0 0 1-24-23c-6-10-6-33-1-44 6-9 16-19 26-24l9-4 156 0c169-1 168-1 183 9 7 5 16 17 19 27 3 8 1 28-3 36a55 55 0 0 1-22 23c-7 3-12 3-171 4l-164 0-8-4m0-199c-39-18-38-73 0-91 8-4 10-4 95-4h87l10 5a48 48 0 0 1 28 45 47 47 0 0 1-27 43l-11 6h-87l-87 0-8-4" horiz-adv-x="1050" />

<glyph glyph-name="dribbble" unicode="&#xe80b;" d="M491 766l-22-3c-99-11-197-64-262-139a419 419 0 0 1-99-215c-4-28-4-90 0-118 9-56 28-109 55-154 66-109 172-180 299-200 28-4 90-4 118 0a427 427 0 0 1 211 96c66 55 114 134 135 220 8 34 11 55 11 97 0 29-1 44-3 59-21 131-97 241-211 305a416 416 0 0 1-143 48c-17 3-76 5-89 4m61-84c43-5 77-14 113-32 20-9 52-29 65-40l5-4-22-18c-37-29-80-57-118-76-10-5-19-9-20-8a43 43 0 0 0-7 10c-14 29-62 104-91 144a344 344 0 0 0-13 19c0 1 9 3 24 5a341 341 0 0 0 64 0m-164-43a1500 1500 0 0 0 95-144c8-13 14-24 14-24 0-1-32-11-55-17-52-13-98-19-156-20-37-1-83 1-86 4-2 1 11 35 21 57a330 330 0 0 0 138 146c10 5 18 9 19 9 1 0 5-5 10-11m413-109a352 352 0 0 0 41-90c4-16 10-48 11-68l2-15-17 4c-58 11-148 12-193 4-4-1-5-1-7 5-2 4-8 18-14 32a356 356 0 0 0-11 25c1 0 11 6 23 12a813 813 0 0 1 143 95c6 6 12 11 12 11 1 0 5-7 10-15m-263-140c1-2 6-13 11-24 4-11 8-20 8-20 0-1-5-3-11-5-58-19-128-56-176-94a596 596 0 0 1-96-95l-11-13-5 6c-20 25-44 69-54 102-9 30-16 71-16 98v9l20-2c31-2 113-1 137 1a840 840 0 0 1 171 36c10 3 18 6 19 6 1 0 2-2 3-5m255-107c23-3 48-7 50-9 4-3-10-44-24-73-21-42-54-83-88-109-7-6-7-6-8-2l-8 36a1448 1448 0 0 1-34 127l-10 31 9 1c19 2 25 2 58 2 19-1 43-2 55-4m-201-26c13-35 37-125 48-178 3-17 6-33 7-35 1-6-47-20-86-25a282 282 0 0 0-51-2c-51 2-93 13-139 36-16 7-46 26-46 28 0 3 33 42 51 60a510 510 0 0 0 152 104c15 7 55 21 58 22 1 0 4-5 6-10" horiz-adv-x="1042" />

<glyph glyph-name="behance" unicode="&#xe80c;" d="M170 640c-29-6-55-31-63-62-4-15-4-441 0-456 8-31 33-55 64-62 6-1 40-2 110-1 96 0 101 1 113 4 33 9 59 25 81 47a171 171 0 0 1 42 78c4 16 4 58 0 74a173 173 0 0 1-41 76l-11 12 11 12c19 20 34 47 41 76 4 16 4 58 0 74-17 68-71 118-140 128-15 2-195 2-207 0m505-42a49 49 0 0 1-15-9 40 40 0 0 1-1-60c12-12 13-12 91-12 48 0 70 0 75 2 10 3 24 17 27 27 6 20-2 39-21 49-7 4-9 4-78 4-44 1-74 0-78-1m-305-41c34-7 61-35 66-69 7-42-20-83-62-94-8-2-25-2-98-2h-88v166h86c52 0 90 0 96-1m355-84a188 188 0 0 1-74-29c-44-30-77-85-86-144-13-84 24-170 91-213a167 167 0 0 1 88-28c58-2 108 19 150 63 17 17 21 25 22 37 3 23-18 45-40 45-14 0-20-3-42-24-16-16-24-22-34-27-49-24-101-9-131 36-8 12-16 30-16 34 0 1 46 2 124 2 91 0 126 1 131 2 11 3 23 15 27 25 8 23-2 76-21 115-26 52-71 90-122 103-17 4-51 6-67 3m54-87c21-8 41-23 54-45 7-9 14-27 14-31 0-1-36-2-97-2s-97 1-97 2c0 9 15 36 28 50 13 14 37 27 55 31 10 1 33-1 43-5m-409-79c13-3 32-13 41-21 16-15 25-34 26-55a84 84 0 0 0-54-84l-11-4-92-1-92 0v166h86c50 0 91 0 96-1" horiz-adv-x="1042" />

<glyph glyph-name="linkedin" unicode="&#xe80d;" d="M247 722c-46-9-80-40-96-85l-4-14v-546l4-14c7-21 17-35 32-51s30-24 51-32l13-4h547l14 4a123 123 0 0 1 51 32c15 16 24 30 31 51l5 14v546l-5 14c-15 45-50 76-95 85-12 3-43 3-275 3-218 0-264-1-273-3m542-85c8-4 15-11 19-20 4-5 4-15 4-267v-261l-4-7c-5-10-16-19-25-22-5-1-73-2-262-2-230 0-257 1-265 3-10 4-22 17-25 28-3 11-3 514 0 524 3 10 18 24 27 27 5 1 89 1 266 1l258 0 7-4m-447-81a49 49 0 0 1-15-9 40 40 0 0 1-2-59c17-17 41-17 58 0 13 13 16 27 10 43-7 19-31 31-51 25m125-83a48 48 0 0 1-15-9c-15-14-14-6-14-155 0-98 0-133 2-138 4-15 23-29 39-29s35 14 40 29c1 5 2 29 2 86v79l7 7a213 213 0 0 0 42 30c29 15 64 13 73-3 2-4 2-23 3-102 1-108 0-103 15-116a40 40 0 0 1 39-8c10 3 24 17 27 27 3 11 3 188 0 205-11 59-59 93-125 90a154 154 0 0 1-63-16 174 174 0 0 0-18-8c-1 0-2 2-3 5-1 8-12 19-22 24a40 40 0 0 1-29 2m-125-42a48 48 0 0 1-15-9c-15-13-14-8-14-134 0-82 0-112 2-117 4-15 23-29 39-29s35 14 40 29c3 10 3 223 0 233-3 10-13 20-23 25a40 40 0 0 1-29 2" horiz-adv-x="1042" />

<glyph glyph-name="instagram" unicode="&#xe80e;" d="M335 724l-17-3a209 209 0 0 1-56-18 210 210 0 0 1-113-153c-3-14-3-41-3-200 0-201 0-199 11-232 24-74 86-127 165-140 23-4 375-4 398 0a212 212 0 0 1 61 20c60 30 101 85 112 153 4 23 4 375 0 398-15 87-77 152-165 172-10 3-35 3-200 3-104 0-190 0-193 0m376-85a124 124 0 0 0 99-98c2-12 3-36 3-191 0-155-1-179-3-191-9-45-41-80-86-95l-13-5h-380l-14 5c-36 12-65 39-78 72-10 24-10 21-10 214 0 193 0 190 10 214 12 30 40 58 69 69 24 9 21 8 212 9 156 0 180-1 191-3m-15-62a49 49 0 0 1-15-9 40 40 0 0 1-2-60c18-17 41-16 58 1 13 12 16 26 10 43-7 19-30 31-51 25m-204-63a144 144 0 0 1-45-15 166 166 0 0 1-90-121c-10-53 7-106 47-145 46-47 112-62 175-39 43 16 82 55 98 98 29 81-6 169-81 206a142 142 0 0 1-48 16 160 160 0 0 1-56 0m45-82c24-5 48-24 59-46a83 83 0 0 0-55-117c-37-9-79 10-95 45-29 62 24 130 91 118" horiz-adv-x="1042" />

<glyph glyph-name="folder-line" unicode="&#xe80f;" d="M188 682c-43-8-81-39-96-79-9-23-9-14-9-273 0-264 0-253 10-278 6-15 15-27 27-40 13-13 25-21 40-27 26-11 7-10 340-10s315-1 340 10a115 115 0 0 1 40 27c18 18 29 39 34 64 4 18 4 488 0 506-9 46-40 80-86 96l-14 5-309 0c-170 0-313-1-317-1m228-85a45 45 0 0 0 15-9c6-6 9-13 29-63 12-31 24-60 26-64 11-23 35-45 58-57 25-12 18-11 161-12l128 0v-148c0-168 1-160-12-173-14-14 14-13-321-13-334 0-307-1-321 13-13 13-12-6-12 258 0 265-1 245 12 259 13 12 9 12 125 12 92 0 105 0 112-3m390 0a44 44 0 0 0 15-10c11-11 12-17 12-68v-44l-123 0-124 1-8 5a51 51 0 0 0-12 10c-4 4-18 38-43 101l-3 8h139c125 0 140 0 147-3" horiz-adv-x="1000" />

<glyph glyph-name="arrow-down" unicode="&#xe810;" d="M485 639c-6-2-23-18-117-112-73-72-111-112-113-116a38 38 0 0 1-2-30c3-13 14-24 27-28 11-4 14-4 25 0 9 2 13 6 102 95l93 93 93-93c84-84 94-93 101-95 16-6 32-2 44 10a41 41 0 0 1 7 47c-2 5-34 39-113 117-99 99-110 110-118 112a44 44 0 0 1-29 0m0-250c-6-2-23-18-117-112-120-120-118-117-118-136a38 38 0 0 1 13-30c8-8 16-11 28-11 18 0 17-1 117 99l92 92 93-93c84-84 94-93 101-95 16-6 32-2 44 10a41 41 0 0 1 7 47c-2 5-34 39-113 117-99 99-110 110-118 112a44 44 0 0 1-29 0" horiz-adv-x="1000" />

<glyph glyph-name="left-small" unicode="&#xe811;" d="M450 509a44 44 0 0 1-29-24c-5-8-4-27 0-35 1-3 24-27 50-53l47-47-47-47c-26-26-49-50-50-53-4-8-5-27 0-35 10-21 36-30 56-20 10 5 131 126 137 137a37 37 0 0 1 3 18 37 37 0 0 1-3 18c-5 10-127 132-136 137a48 48 0 0 1-28 4" horiz-adv-x="1000" />

<glyph glyph-name="right-small" unicode="&#xe812;" d="M533 509a57 57 0 0 1-11-5c-9-4-131-126-135-136a44 44 0 0 1 0-36c5-11 126-132 136-137 20-10 46-1 57 20 4 8 4 27-1 35-1 3-24 27-50 53l-46 47 46 47c26 26 49 50 50 53 5 8 5 27 1 35-9 17-28 27-47 24" horiz-adv-x="1000" />

<glyph glyph-name="celebrate" unicode="&#xe813;" d="M508 762a43 43 0 0 1-31-29c-3-10-3-8 4-40 8-36-2-93-26-150-7-16-8-21-8-29 0-12 4-21 13-30 10-9 17-11 31-10a40 40 0 0 1 31 17c15 23 36 89 42 132 7 49 0 105-14 124a43 43 0 0 1-42 15m236-118c-10-3-20-10-38-28-19-20-24-29-24-42 0-13 3-21 12-30 9-9 17-12 31-12 13 0 22 6 45 29 18 18 20 21 23 30 4 15 1 29-10 40-10 11-26 16-39 13m-442-89a39 39 0 0 1-27-20c-4-7-161-434-165-448-4-14-5-37-1-52a107 107 0 0 1 76-76c14-4 37-4 52 1 14 4 440 161 448 165 9 4 16 14 19 24 3 10 3 13 0 25-2 8-7 13-185 192-125 125-185 183-190 186a44 44 0 0 1-27 3m320-31c-10-3-14-7-41-33-17-18-25-27-28-33-12-28 8-58 39-58 15 0 21 4 52 35 24 24 28 29 30 37 11 32-20 64-52 52m127-47c-15-7-22-20-22-36 0-17 9-31 25-38 6-3 10-4 31-4 26 0 33 2 43 13 10 9 11 14 12 29 0 12-1 14-5 22a43 43 0 0 1-14 13c-8 5-8 5-35 5-26 1-27 1-35-4m-290-169c72-71 130-130 129-130-2-3-373-138-378-138a20 20 0 0 0-20 20c0 5 136 378 138 378 1 0 60-58 131-130m191 57c-17-2-30-10-37-24a41 41 0 0 1 17-54l7-4 46 0c41-1 48-1 64-4 22-5 38-10 55-19 7-4 16-7 20-8 16-2 33 7 41 21 4 7 5 10 5 20-1 22-8 31-37 45-28 14-57 22-93 26-23 3-69 3-88 1" horiz-adv-x="1000" />

<glyph glyph-name="star-fill" unicode="&#xe814;" d="M489 755a55 55 0 0 1-27-15c-3-3-31-51-64-107a10637 10637 0 0 0-59-102c-1 0-52-12-115-25-65-14-117-26-122-28-11-5-19-13-25-23-4-8-4-11-4-24 0-13 0-16 4-23 3-5 32-39 66-78 35-38 70-78 79-88l17-19-12-117c-7-69-12-121-11-125 2-16 14-33 27-39 9-5 23-7 33-5 4 1 57 23 116 49l108 48 108-48c60-26 112-48 116-49 10-2 24 0 33 5 13 6 25 23 27 39 1 4-4 56-11 125l-12 118 6 6c109 121 153 172 156 178 4 7 5 10 5 23 0 13-1 16-5 24a51 51 0 0 1-25 23c-5 2-57 14-122 28-62 13-114 25-115 25 0 1-27 47-59 102-33 56-62 104-65 108-12 12-31 18-48 14" horiz-adv-x="1000" />

<glyph glyph-name="close-line" unicode="&#xe815;" d="M470 766c-76-7-141-29-202-70a416 416 0 0 1-137-539 393 393 0 0 1 75-101 396 396 0 0 1 101-75 416 416 0 0 1 386 0 394 394 0 0 1 101 75 394 394 0 0 1 75 101 416 416 0 0 1-131 534c-52 37-110 60-176 71-20 3-74 5-92 4m81-87c144-22 256-135 279-280 3-25 3-73 0-98a331 331 0 0 0-88-180 321 321 0 0 0-96-70c-45-22-85-32-134-34a331 331 0 0 0-254 104 331 331 0 0 0-87 180c-4 25-4 73 0 98a334 334 0 0 0 209 262c20 8 55 17 75 19 9 1 18 2 21 2 10 2 59 0 75-3m-178-171a41 41 0 0 1-30-28c-4-11-4-14 0-25 2-9 5-12 50-57l48-48-48-48c-45-45-48-48-50-57-4-11-4-14 0-25 3-12 15-24 27-27 11-4 14-4 25 0 9 2 12 5 57 50l48 48 48-48c45-45 48-48 57-50 11-4 14-4 25 0a38 38 0 0 1 17 10 38 38 0 0 1 10 17c4 11 4 14 0 25-2 9-5 12-50 57l-48 48 48 48c45 45 48 48 50 57 4 11 4 14 0 25-7 24-35 36-57 25-5-2-23-19-54-50l-46-46-46 46c-28 28-49 48-53 50-8 4-20 5-28 3" horiz-adv-x="1000" />

<glyph glyph-name="whatsapp" unicode="&#xe816;" d="M463 765c-75-7-142-32-201-74a415 415 0 0 1-178-356 407 407 0 0 1 45-174l14-27-19-64c-20-68-22-77-16-90 3-8 13-18 21-22 13-6 21-5 91 16l64 19 27-14a407 407 0 0 1 174-45c99-4 193 27 273 89 19 14 55 51 69 69 59 76 90 165 90 258 0 190-132 359-316 404-41 10-100 15-138 11m89-86c92-15 173-67 224-143a339 339 0 0 0 53-137c5-26 4-76 0-103-25-137-124-242-259-272a330 330 0 0 0-225 31c-44 24-41 23-56 23-13-1-19-2-47-10-18-6-33-10-33-9 0 0 4 17 10 36 9 32 10 36 9 47-1 9-2 14-7 24-31 59-35 69-43 100-8 29-10 50-10 87 0 36 3 57 11 87a335 335 0 0 0 201 221 367 367 0 0 0 75 19c9 1 18 2 21 2 10 2 60 0 76-3m-169-127c-18-6-43-27-57-47-16-25-20-52-13-87 12-58 44-112 93-162 50-50 104-81 162-93 43-9 75 0 105 27 13 13 26 32 29 44a22 22 0 0 1 0 14c-4 14-31 41-68 67-25 17-28 19-38 19-14 0-19-4-35-29-16-24-18-26-23-24-7 1-43 26-56 38-21 20-49 58-49 69 0 4 2 6 20 19a244 244 0 0 1 25 21 27 27 0 0 1 6 23c-1 7-23 41-39 60-11 13-33 35-40 38-6 3-16 5-22 3" horiz-adv-x="1000" />

<glyph glyph-name="telegram" unicode="&#xe817;" d="M831 668c-10-4-712-299-723-305-12-6-18-11-24-21-17-26-13-59 9-79 10-8 25-15 80-36 102-40 178-62 232-69 7-1 9-3 21-15 40-41 123-97 237-161 40-22 49-26 66-27a82 82 0 0 1 83 56c2 5 24 135 49 288 55 336 51 306 49 318a64 64 0 0 1-36 48c-12 5-32 6-43 3m-10-98c-1-2-20-122-44-266-24-145-44-263-44-263-2-2-91 49-140 80-42 27-76 52-97 70l-6 6 85 86c78 78 87 87 89 94 2 5 3 11 3 15 0 17-13 34-29 39-11 3-15 3-26 0-9-3-13-6-104-97l-94-94-13 3c-30 5-66 15-113 31-36 12-91 32-93 34-1 1 621 265 626 265 0 0 0-1 0-3" horiz-adv-x="1000" />

<glyph glyph-name="play" unicode="&#xe818;" d="M486 376q14-10 14-26 0-14-14-24l-428-266q-24-16-41-6t-17 40l0 514q0 30 17 40t41-6z" horiz-adv-x="500" />

<glyph glyph-name="pause" unicode="&#xe819;" d="M440 700q90 0 90-64l0-570q0-66-90-66t-90 66l0 570q0 64 90 64z m-350 0q90 0 90-64l0-570q0-66-90-66t-90 66l0 570q0 64 90 64z" horiz-adv-x="530" />

<glyph glyph-name="email" unicode="&#xe81a;" d="M158 663c-26-9-44-28-52-55-2-8-3-33-3-258 0-224 1-250 3-258 8-28 26-47 53-56 10-3 12-3 174-4 109 0 167 0 173 1 17 3 28 14 33 31 3 13-1 24-11 35-6 6-11 10-15 11-5 1-57 2-168 2h-162v185c0 147 1 185 2 184 2-1 65-54 142-118 101-84 143-118 150-121a62 62 0 0 1 47 0c6 3 50 39 150 122l142 118 1-51c1-50 1-50 5-58 8-15 24-24 40-22a35 35 0 0 1 23 11c12 11 11 4 11 126 1 98 0 112-2 120-8 27-26 46-52 55-10 4-11 4-342 4-329 0-333 0-342-4m658-76c0-2-314-264-316-264-2 0-316 262-316 264-1 1 131 1 316 1s317 0 316-1m-55-321c-11-5-16-11-22-26-18-49-39-71-84-87-18-7-22-9-28-18a39 39 0 0 1 7-54c3-2 12-7 21-9 27-10 47-24 61-42 9-13 14-23 22-42 6-18 11-25 22-30 12-6 23-6 34-1 11 5 18 14 23 28 8 25 17 40 33 56 12 13 28 22 50 30 19 7 27 12 32 23a38 38 0 0 1-5 43c-6 7-10 9-29 16-21 8-34 16-49 31-14 15-21 27-31 53-7 17-13 25-24 30a42 42 0 0 1-33-1m32-170l-15-15-16 15-15 16 15 15 16 16 15-16 16-15-16-16" horiz-adv-x="1000" />

<glyph glyph-name="earth-line" unicode="&#xe81b;" d="M463 765c-103-10-196-55-265-128a416 416 0 0 1-67-480 393 393 0 0 1 75-101c41-41 87-72 139-93 140-55 293-33 413 60 19 14 55 51 69 69 59 76 90 165 90 258 0 190-132 359-316 404-41 10-100 15-138 11m46-87c22-22 46-83 58-145 1-6 2-12 2-14 1-3 0-3-69-3h-70l1 5c13 72 36 133 60 157 3 3 7 5 9 5 2 0 6-2 9-5m-131-35c-12-31-27-88-32-128l-2-9-22-4c-39-6-92-20-120-31-8-3-15-6-15-6-1 0 9 22 15 34a339 339 0 0 0 147 148c10 5 35 16 36 16 0 0-3-9-7-20m271 5a336 336 0 0 0 152-155c5-11 9-21 10-23l1-5-15 6c-29 12-91 27-132 34l-9 1-2 13c-9 53-22 101-38 141-1 3 0 3 9-1 6-2 17-7 24-11m-76-217l7-1 1-13c2-17 2-117 0-134l-1-13-6-1c-8-2-140-2-147 0-6 1-7 1-8 10-3 28-2 147 2 151 3 3 132 4 152 1m-239-81c0-38 0-70 0-70l-22 4c-46 10-92 25-117 41-16 9-28 20-28 24 0 2 4 8 9 13 15 14 50 31 89 42 14 4 63 16 68 16 1 0 1-24 1-70m356 65c58-12 104-29 129-49 17-13 18-18 4-29-20-16-49-30-88-41-19-5-48-12-63-15l-6-1v70c0 39 0 70 0 70 1 0 11-2 24-5m-487-186c30-12 91-27 132-33l9-2 3-17c7-42 20-94 32-124 3-9 6-16 6-16 0-1-23 9-36 16-62 31-115 85-147 148-6 12-16 34-15 34 0 0 7-3 16-6m604-8a334 334 0 0 0-75-110c-26-25-51-43-80-58-14-7-37-17-37-16 0 0 3 7 6 16 12 30 27 91 34 132l1 9 26 5c43 7 95 21 121 32 5 2 8 3 8 2 1 0-1-6-4-12m-237-37c0 0-2-10-4-21-12-59-30-106-50-132-13-18-19-18-32-1-14 20-29 52-39 88-4 13-15 63-15 66 0 0 32 0 70 0 39 0 70 0 70 0" horiz-adv-x="1000" />

<glyph glyph-name="paint-brush-ai-line" unicode="&#xe81c;" d="M246 806c-15-5-23-15-29-32-14-44-42-73-83-88-20-7-28-11-33-19-9-11-12-29-6-42 5-10 15-19 25-23 28-10 35-13 46-21 24-16 38-36 50-69 8-22 14-29 29-34a39 39 0 0 1 29 1c14 6 21 14 27 34a140 140 0 0 0 42 63c10 8 34 20 50 25 20 6 31 21 31 41 0 18-10 32-27 39-34 12-48 20-63 36-16 15-24 29-36 62a44 44 0 0 1-21 24c-8 5-24 6-31 3m627-58c-2 0-17-6-34-12-125-46-220-98-281-152-36-32-82-92-119-157-7-12-9-14-12-14-7 3-39 4-56 3a202 202 0 0 1-126-56c-16-16-27-30-35-47-12-24-17-43-22-83a271 271 0 0 0-6-37c-7-25-28-49-64-76-21-15-22-17-22-25 0-7 2-10 23-27 25-21 48-37 73-49 124-62 242-49 335 38 49 45 75 110 68 171a1575 1575 0 0 0-2 22c0 4 3 7 24 19 81 49 134 94 170 142 46 61 92 153 131 259 7 19 10 29 10 35a46 46 0 0 1-55 46m-590-115a398 398 0 0 1-17-16l-7-8-17 16-16 17 16 16 16 16 17-16 16-17-8-8m529-7c-27-65-65-134-95-173-8-11-38-42-40-42 0 0-6 7-11 15-14 20-41 47-61 61l-16 10 12 13c28 29 75 61 133 90 22 11 80 38 82 38 1 0-1-5-4-12m-260-204c15-9 39-33 48-49 4-6 8-13 8-13 0-2-24-17-43-28l-6-4-5 6a303 303 0 0 1-37 38c-5 4-8 7-8 8 0 3 28 48 30 48 1 0 7-3 13-6m-129-94a125 125 0 0 0 76-64c10-18 13-34 13-55 0-20-3-35-10-51-19-41-67-79-118-92-23-6-59-7-84-1-30 7-79 27-79 32 0 1 1 4 3 6 6 5 25 35 31 48 9 19 12 34 16 66 2 16 5 34 6 40 8 31 37 59 75 71 18 6 50 6 71 0" horiz-adv-x="1042" />

<glyph glyph-name="target-line" unicode="&#xe81d;" d="M463 765a417 417 0 0 1-372-336c-23-119 6-239 82-337 14-18 50-55 69-69 54-42 114-69 179-82 119-23 239 6 337 82 19 14 55 51 69 69 62 80 93 174 89 274-1 33-3 43-12 53-9 10-18 13-31 13-17 0-28-6-37-21-3-5-3-9-4-50 0-49-1-62-10-97-15-58-47-111-91-154-43-41-91-68-149-83a333 333 0 0 0-292 64 413 413 0 0 0-55 58 336 336 0 0 0-64 152c-4 25-4 73 0 98 17 111 86 204 187 252 50 24 99 34 160 32 37-2 40-1 51 9 12 10 17 27 13 42-3 10-15 23-24 27-13 5-60 7-95 4m283-1a65 65 0 0 1-11-5c-3-1-41-38-84-80-59-59-78-80-81-86-3-7-3-10-3-62l0-55-41-41c-45-44-48-49-48-66 0-23 18-41 41-41 17 0 21 3 66 48l41 41 55 0c51 0 55 0 62 3 10 5 162 156 167 167a35 35 0 0 1 4 18c0 17-8 29-22 37-8 4-9 4-51 4l-44 1-1 44c0 48-1 50-11 61-10 10-27 15-39 12m-28-178c8-15 22-23 43-23h12l-32-31-32-32h-59v59l31 31 32 32 0-14c1-10 2-16 5-22m-267-33l-16-5c-81-26-139-103-143-190-4-102 67-191 168-212 76-15 158 16 206 79 13 17 29 49 34 68 4 12 4 15 2 23a41 41 0 0 1-40 32c-21 0-35-10-42-33a119 119 0 0 0-32-52c-17-17-28-25-46-31a122 122 0 0 0-49-6c-46 2-87 31-106 73-8 17-11 31-11 52 0 35 11 61 37 87 16 16 31 26 52 32 14 4 20 8 26 16 16 21 10 49-13 61-7 5-22 7-27 6" horiz-adv-x="1000" />

<glyph glyph-name="palette-line" unicode="&#xe81f;" d="M463 765c-103-10-196-55-265-128a416 416 0 0 1-67-480 393 393 0 0 1 75-101 407 407 0 0 1 175-105c55-17 125-22 159-13 46 13 74 46 80 94 3 22-1 45-12 70-9 21-5 40 10 57 4 4 11 10 16 12 15 7 21 7 72-2 51-8 65-9 88-5 54 10 94 43 111 90 10 30 14 88 10 134-16 176-144 324-314 366-41 10-100 15-138 11m89-86a334 334 0 0 0 249-186 334 334 0 0 0 32-157c-1-25-5-50-9-59-4-9-16-21-28-26-17-8-29-8-78 1-65 11-89 10-123-8-33-17-57-45-69-81-4-11-5-18-6-35 0-23 2-38 12-59 9-22 6-41-9-49-17-8-79-2-127 14-119 38-206 142-225 267-4 25-4 73 0 98a334 334 0 0 0 209 262c20 8 55 17 75 19 9 1 18 2 21 2 10 2 60 0 76-3m-171-122a65 65 0 0 1-42-35c-4-10-5-13-5-26 0-13 1-16 5-26 7-14 17-24 31-31 10-4 13-5 26-5 13 0 16 1 25 5 13 6 26 19 32 32 4 9 5 12 5 25 0 13-1 16-5 25a70 70 0 0 1-32 32c-10 4-29 6-40 4m209 0a65 65 0 0 1-42-35c-5-10-5-13-5-26 0-13 0-16 5-26 6-14 17-24 30-31 10-4 13-5 26-5 13 0 17 1 25 5 13 6 26 19 32 32 4 9 5 12 5 25 0 13-1 16-5 25a70 70 0 0 1-31 32c-11 4-30 6-40 4m-292-167a65 65 0 0 1-42-35c-5-10-5-12-5-26 0-13 0-16 5-26 7-13 17-24 31-30 9-5 12-5 26-5 13 0 16 0 25 4 13 6 25 19 32 32 4 9 4 12 4 25 0 13 0 17-4 25a70 70 0 0 1-32 32c-11 5-29 7-40 4" horiz-adv-x="1000" />

<glyph glyph-name="quill-pen-ai-line" unicode="&#xe820;" d="M204 806c-15-5-23-15-29-32-14-44-41-73-83-88-20-7-27-11-33-19-9-11-11-29-5-42 4-10 14-19 24-23 28-10 36-13 47-21 23-16 37-36 49-69 8-22 15-29 29-34a39 39 0 0 1 30 1c14 6 20 14 27 34a140 140 0 0 0 41 63c10 8 35 20 50 25 20 6 32 21 32 41 0 18-10 32-28 39-33 12-47 20-63 36-15 15-24 29-36 62a44 44 0 0 1-20 24c-9 5-25 6-32 3m644-58c-42-6-98-19-144-34-80-27-148-63-209-110-24-18-72-66-91-89-70-89-119-201-142-326-11-64-23-161-23-199l0-28 5-9a41 41 0 0 1 62-10c11 10 14 17 15 42 2 27 4 49 9 90l4 32 17 1a770 770 0 0 1 179 35c121 39 206 102 269 197 17 26 42 76 53 108 11 27 21 63 21 70 0 3 2 7 4 8 5 5 20 30 26 45 20 48 19 97-2 141a147 147 0 0 1-11 21c-8 10-27 17-42 15m-607-115a398 398 0 0 1-16-16l-8-8-16 16-17 17 16 16 16 16 17-16 17-17-9-8m591 25c2-4 2-28 0-37-4-16-15-38-25-47-26-25-106-70-168-94-15-6-29-12-32-15a45 45 0 0 1-10-13 42 42 0 0 1 36-60c13 0 54 16 100 39 14 7 26 13 27 12 0 0-4-10-10-21-39-76-92-129-167-168-57-29-130-50-201-59-36-5-35-5-35-2 0 6 15 59 23 83 43 127 113 222 210 287 60 39 129 69 206 88 42 11 45 11 46 7" horiz-adv-x="1042" />

<glyph glyph-name="upload-3-line" unicode="&#xe840;" d="M479 683c-110 0-198-99-186-208 1-10-2-20-7-29-6-8-15-14-25-16-29-8-55-26-72-51-17-25-25-56-21-86 4-30 19-58 41-78 23-20 52-31 83-32h41c11 0 22-4 30-12 8-8 12-18 12-29 0-11-4-22-12-30-8-8-19-12-30-12h-41c-48 0-95 16-132 47-37 30-63 72-72 119-10 47-3 96 19 138 22 43 57 76 101 95 1 64 24 124 65 173 41 48 97 80 159 91 63 11 127 0 182-32 54-31 97-81 119-140 58-16 109-53 142-103 33-50 47-111 39-171-8-60-37-115-83-155-45-40-104-62-164-62-11 0-22 4-30 12-8 8-12 19-12 30 0 11 4 21 12 29 8 8 19 12 30 12 42 0 82 16 113 44 31 29 50 68 53 109 4 42-9 84-35 117-25 33-63 55-104 62-8 1-15 4-21 10-6 5-11 12-13 20-11 40-34 75-67 100-33 25-73 38-114 38z m63-350l54-54c3-4 8-7 13-9 5-2 11-3 16-3 6 0 11 1 16 3 5 2 10 5 14 9 3 4 6 8 9 13 2 6 3 11 3 16 0 6-1 11-3 16-3 5-6 10-9 14l-118 117c-10 10-23 16-37 16-14 0-27-6-37-16l-117-117c-8-8-13-19-13-30 0-11 5-21 13-29 7-8 18-12 29-12 11 0 22 4 30 12l53 54v-358c0-11 5-22 13-30 7-7 18-12 29-12 11 0 22 5 30 12 7 8 12 19 12 30v358z" horiz-adv-x="1000" />

<glyph glyph-name="down-small-fill" unicode="&#xe841;" d="M529 244c-7-7-18-12-29-12-11 0-22 5-29 12l-118 118c-6 6-10 14-12 22-1 8 0 16 3 24 3 7 8 14 15 18 7 5 15 7 23 7h236c8 0 16-2 23-7 7-4 12-11 15-18 4-8 4-16 3-24-2-8-6-16-12-22l-118-118z" horiz-adv-x="1000" />

<glyph glyph-name="check-circle-line" unicode="&#xe842;" d="M480 750c221 0 400-179 400-400 0-221-179-400-400-400-221 0-400 179-400 400 0 221 179 400 400 400z m0-80c-85 0-166-34-226-94-60-60-94-141-94-226 0-85 34-166 94-226 60-60 141-94 226-94 85 0 166 34 226 94 60 60 94 141 94 226 0 85-34 166-94 226-60 60-141 94-226 94z m141-175c8 7 17 11 28 12 10 0 20-4 27-10 8-7 13-16 14-27 1-10-2-20-9-28l-3-4-223-223c-8-8-18-12-29-13-11-1-21 3-30 9l-4 4-110 110c-7 7-11 17-12 27 0 10 3 20 10 28 7 8 16 12 27 13 10 1 20-2 28-8l4-3 84-85 198 198h0z" horiz-adv-x="960" />

<glyph glyph-name="mouse-line" unicode="&#xe843;" d="M542 767c64 0 127-25 173-70 47-45 74-106 77-171l0-9v-334c0-64-25-126-70-173-45-47-106-74-171-77l-9 0h-84c-64 0-126 25-173 70-47 45-74 106-76 171l-1 9v334c0 64 25 127 70 173 45 47 106 74 171 77l9 0h84z m0-84h-84c-42 0-84-16-114-46-31-29-50-69-52-112l0-8v-334c0-42 16-83 46-114 29-31 69-50 112-52l8 0h84c42 0 84 16 115 46 31 29 49 69 51 112l0 8v334c0 42-16 84-46 115-29 31-69 49-112 51l-8 0z m-42-83c10 0 20-4 28-10 7-7 12-17 13-27l1-5v-166c0-11-4-21-12-29-7-8-17-12-28-13-10 0-21 3-29 10-8 7-13 16-14 27l-1 5v166c0 11 5 22 13 30 7 8 18 12 29 12z" horiz-adv-x="1000" />

<glyph glyph-name="light-line" unicode="&#xe844;" d="M500 58c10 0 20-3 28-10 7-7 12-16 13-26l1-5v-42c0-11-4-21-12-29-7-7-17-12-28-13-10 0-21 3-29 10-8 7-13 17-14 27l-1 5v42c0 11 5 21 13 29 7 8 18 12 29 12z m-206 86c8-8 12-19 12-30 0-11-4-21-12-29l-30-30c-4-4-8-7-13-9-5-2-11-3-16-3-6 0-11 1-16 3-6 2-10 5-14 9-4 4-7 8-9 14-2 5-3 10-3 16 0 5 1 11 3 16 2 5 5 9 9 13l30 30c8 8 18 12 29 12 11 0 22-4 30-12z m471 0l30-30c7-8 11-18 11-29 0-11-4-21-12-29-8-8-18-12-29-12-11 0-21 4-29 11l-30 30c-7 8-11 18-11 29 0 11 4 22 12 29 8 8 18 12 29 12 11 1 21-4 29-11z m-239 623c20 0 40-8 55-21 15-14 25-32 27-52l16-127c48-27 86-70 107-121 21-50 25-107 11-160-15-53-46-101-90-134-43-34-97-52-152-52-55 0-109 18-152 52-44 33-75 81-90 134-14 53-10 110 11 160 22 51 59 94 107 121l16 127c2 20 12 38 27 52 15 13 35 21 55 21h52z m-26-250c-44 0-87-18-118-49-31-31-49-74-49-118 0-44 18-87 49-118 31-31 74-49 118-49 44 0 87 18 118 49 31 31 49 74 49 118 0 44-18 87-49 118-31 31-74 49-118 49z m-333-125c11 0 21-5 29-12 8-8 12-19 12-30 0-11-4-22-12-29-8-8-18-13-29-13h-42c-11 0-22 5-29 13-8 7-13 18-13 29 0 11 5 22 13 30 7 7 18 12 29 12h42z m708 0c11 0 22-5 30-12 7-8 12-19 12-30 0-11-5-22-12-29-8-8-19-13-30-13h-42c-11 0-21 5-29 13-8 7-12 18-12 29 0 11 4 22 12 30 8 7 18 12 29 12h42z m-80 253c7-8 12-19 12-30 0-11-5-21-12-29l-30-30c-4-4-8-7-13-9-5-2-11-3-16-3-6-1-11 1-17 3-5 2-9 5-13 9-4 4-7 8-9 13-2 6-3 11-3 17 0 5 1 11 3 16 2 5 5 9 9 13l30 30c8 7 18 12 29 12 11 0 22-5 30-12z m-531 0l30-30c7-8 11-18 11-29 0-11-4-21-12-29-8-7-18-12-29-12-11 0-21 4-29 11l-30 30c-7 8-11 18-11 29 0 11 5 21 12 29 8 7 18 12 29 12 11 0 21-4 29-11z m262 38h-52l-10-83h72l-10 83z" horiz-adv-x="1000" />

<glyph glyph-name="hands-clapping-line" unicode="&#xe845;" d="M381 700c11 10 23 18 37 23 14 4 29 6 43 4 15-2 29-7 41-15 13-8 23-18 31-31l4-6 28-49c2 2 4 5 6 7 23 29 57 46 95 53 31 5 56-16 65-39l2-5c8-28 23-62 42-98 64-121 55-274-31-376-17-80-62-152-137-197-66-39-144-49-217-29-73 20-135 69-173 137-29 52-59 104-89 155-7 13-12 27-13 42-2 15-1 30 4 44 5 14 12 27 22 38 10 11 22 20 35 25l6 3-31 56c-8 13-12 28-13 44-1 16 1 32 7 46 5 15 14 28 25 38 12 11 25 19 40 23-9 23-10 49-3 73 8 23 23 43 44 56 21 13 45 18 69 14 24-4 45-17 61-36z m-152-188c-5-3-8-8-10-13-1-5 0-11 2-16l132-234c3-5 4-10 5-16 1-5 1-11-1-16-1-5-4-10-7-15-3-4-7-8-12-10-4-3-10-5-15-6-5 0-10 0-16 1-5 2-10 4-14 8-4 3-8 7-10 12l-51 91c-1 2-3 4-5 6-2 1-5 2-7 3-3 1-5 1-8 0-2 0-5-1-7-2-2-1-4-3-6-5-1-3-3-5-3-8-1-2-1-5-1-7 1-3 1-6 3-8 30-52 60-104 89-157 28-48 72-83 124-97 53-15 108-7 155 21 53 31 87 84 100 145l1 24c2 55 0 104-28 157-17 32-32 64-42 95-19-7-31-19-36-31-11-25 0-51 12-72 3-5 5-10 5-16 1-5 1-11 0-16-2-5-4-10-7-15-3-4-7-8-12-11-4-2-9-4-15-5-5-1-10-1-15 1-6 1-10 3-15 7-4 3-8 7-10 12-15 23-29 48-42 72l-41 74c-7 12-13 24-20 37-3 4-8 7-13 7-5 1-10 0-15-3-4-3-7-7-8-12-1-5-1-11 2-15l91-163c5-9 7-21 4-31-3-11-10-20-19-25-9-6-20-7-30-5-11 3-20 10-25 20l-33 57-66 114c-11 19-22 39-33 58-2 5-7 8-12 10-5 1-11 0-15-2z m432 87c-11-4-21-11-28-19-7-8-11-18-12-29 24-4 41-23 47-43 8-28 23-62 42-98 10-19 18-38 25-58 4 53-6 106-31 153-17 31-32 64-43 94z m-222 42c-4-2-8-7-9-12-2-6-1-11 2-16l68-122c7 10 15 18 23 25l7 6-63 112c-3 5-7 8-12 10-6 1-11 0-16-3z m-146 10c-4-3-8-7-9-13-1-5-1-11 2-15l31-56c10 9 22 16 35 21l-31 55c-3 5-7 9-12 10-5 2-11 1-16-2v0z m573 33c5-9 6-20 4-30-2-10-7-19-15-25l-4-2-34-21c-9-5-20-7-30-4-10 2-19 8-25 17-5 9-8 20-6 30 2 11 8 20 16 27l4 2 34 21c5 2 10 4 15 5 5 1 11 0 16-1 5-2 10-4 14-7 4-4 8-8 11-12z m-111 121c9-3 18-9 23-18 6-8 8-18 6-28l-1-5-5-20c-2-11-9-19-18-25-8-6-19-7-29-5-10 2-19 8-25 17-6 8-8 19-7 29l1 5 5 20c3 11 10 20 19 26 9 5 20 7 31 4v0z m-148 0c10 2 20 1 29-3 9-5 16-13 19-22l2-5 5-20c3-10 2-21-3-31-5-9-13-16-23-19-10-4-21-3-30 1-10 5-17 13-21 23l-1 5-6 20c-2 10-1 22 5 31 5 10 14 17 24 20v0z" horiz-adv-x="972" />
</font>
</defs>
</svg>
